DVD Daughter for Sale | Station 19 | Kommentare (16)

+ wearforest.com »  :::: Bollywood Zone » Bollywood Movies (Original Rips)
|- Satyameva Jayate (2018) Hindi 720p WEB-RIP x264 AC3 DD5.1 - ESUB ~ Ranvijay


Electroncs Sale

Satyameva Jayate (2018) Hindi 720p WEB-RIP x264 AC3 DD5.1 - ESUB ~ Ranvijay

0 Members and 1 Guest are viewing this topic.

October 19, 2018, 10:55:44 PM
  • Global Moderator
  • Legend Member
  • *****
  • Topic Author
  • Thank You: 10068
  • Reputation: 2077
  • Activity:
    100%
  • Country: in
  • Posts: 5233
  • Topics: 4319
  • Join Date: Jan 2014
  • ıllıllı ѕмoĸιng ιѕ good ғor нealтн ıllıllı :)




Satyameva Jayate (2018) Hindi 720p WEB-RIP x264 AC3 DD5.1 - ESUB ~ Ranvijay

Buy RDP Online



Quote

Source                                   : NbT
Format                                   : Matroska
Format version                           : Version 4 / Version 2
File size                                : 1.45 GiB
Duration                                 : 2 h 19 min
Overall bit rate                         : 1 485 kb/s
Movie name                               : Satyameva Jayate (2018) Hindi 720p WEB-RIP x264 AC3 DD5.1 - ESUB ~ Ranvijay

Video
ID                                       : 1
Format                                   : AVC
Format/Info                              : Advanced Video Codec
Duration                                 : 2 h 19 min
Bit rate                                 : 1 259 kb/s
Width                                    : 1 280 pixels
Height                                   : 536 pixels
Display aspect ratio                     : 2.40:1
Frame rate mode                          : Constant
Frame rate                               : 24.000 FPS
Color space                              : YUV
Chroma subsampling                       : 4:2:0
Bit depth                                : 8 bits
Scan type                                : Progressive
Bits/(Pixel*Frame)                       : 0.076
Stream size                              : 1.23 GiB (85%)
Title                                    : ~Ranvijay~

Audio
ID                                       : 2
Format                                   : AC-3
Format/Info                              : Audio Coding 3
Codec ID                                 : A_AC3
Duration                                 : 2 h 19 min
Bit rate mode                            : Constant
Bit rate                                 : 224 kb/s
Channel(s)                               : 6 channels
Channel positions                        : Front: L C R, Side: L R, LFE
Sampling rate                            : 48.0 kHz
Frame rate                               : 31.250 FPS (1536 SPF)
Bit depth                                : 16 bits
Compression mode                         : Lossy
Stream size                              : 224 MiB (15%)
Title                                    : ~Ranvijay~
Language                                 : Hindi
Service kind                             : Complete Main
Default                                  : Yes
Forced                                   : Yes

Text
ID                                       : 3
Format                                   : UTF-8
Codec ID                                 : S_TEXT/UTF8
Codec ID/Info                            : UTF-8 Plain Text
Duration                                 : 2 h 12 min
Bit rate                                 : 42 b/s
Count of elements                        : 1306
Stream size                              : 41.0 KiB (0%)
Title                                    : ~Ranvijay~
Language                                 : English
Default                                  : Yes
Forced                                   : Yes

Menu
00:00:00.000                             : en:Commercial
00:01:05.000                             : en:Studio Logos, Thank you Credits
00:03:07.000                             : en:Scene 3
00:17:40.000                             : en:Scene 4
00:28:29.000                             : en:Scene 5
00:43:59.000                             : en:Scene 6
01:00:56.000                             : en:Scene 7
01:09:37.000                             : en:Scene 8
01:22:03.000                             : en:Scene 9
01:35:10.000                             : en:Scene 10
01:44:53.000                             : en:Scene 11
01:58:24.000                             : en:Scene 12
02:17:06.000                             : en:End Credits














:download:

Quote


File Leeched & Uploaded From




Don't walk as you are king, walk as you don't care who the king is....!!
Never argue with an idiot. They drag you down to their level and then beat you with experience?

Share this topic on FacebookShare this topic on GoogleShare this topic on MySpaceShare this topic on TwitterShare this topic on Yahoo




Don't walk as you are king, walk as you don't care who the king is....!!

Thanks given by:


Tags:
 

Related Topics





Back to top
Sitemap