Registrieren | Domestic na Kanojo chap 67 | Elena Of Avalor: Season 2

+ wearforest.com »  :::: Bollywood Zone » Bollywood Movies (Original Rips)
|- Sanju.2018.Hindi.720p.NF.WEB- DL.x264.AAC.-.Hon3yHD - 1.20 GB


100% Recharge Offer

Sanju.2018.Hindi.720p.NF.WEB- DL.x264.AAC.-.Hon3yHD - 1.20 GB

0 Members and 1 Guest are viewing this topic.

October 19, 2018, 10:45:54 PM
  • Addic7ed
  • Hot Member
  • ****
  • Topic Author
  • Thank You: 260
  • Reputation: 32
  • Activity:
    21.2%
  • Country: in
  • Posts: 570
  • Topics: 572
  • Join Date: Dec 2016
  • ShareSpark Member



-:: Information ::-

Format : Matroska
Format version : Version 4 / Version 2
File size : 1.22 GiB
Duration : 2 h 38 min
Overall bit rate : 1 098 kb/s
Movie name : Sanju.2018.Hindi.720p.NF.WEB-DL.x264.AAC.-.Hon3yHD

Video
ID : 1
Format : AVC
Format/Info : Advanced Video Codec
Format profile :[email protected]
Format settings : CABAC / 8 Ref Frames
Format settings, CABAC : Yes
Format settings, ReFrames : 8 frames
Codec ID : V_MPEG4/ISO/AVC
Duration : 2 h 38 min
Bit rate : 1 000 kb/s
Width : 1 280 pixels
Height : 536 pixels
Display aspect ratio : 2.40:1
Frame rate mode : Constant
Frame rate : 24.000 FPS
Color space : YUV
Chroma subsampling : 4:2:0
Bit depth : 8 bits
Scan type : Progressive

Audio
ID : 2
Format : AAC
Format/Info : Advanced Audio Codec
Format profile : LC
Codec ID : A_AAC-2
Duration : 2 h 38 min
Bit rate : 96.0 kb/s
Channel(s) : 2 channels
Channel positions : Front: L R
Sampling rate : 48.0 kHz
Frame rate : 46.875 FPS (1024 SPF)
Compression mode : Lossy
Delay relative to video : -21 ms
Stream size : 109 MiB (9%)
Title :  Hon3yHD.org
Language : Hindi

Text
ID : 3
Format : UTF-8
Codec ID : S_TEXT/UTF8
Codec ID/Info : UTF-8 Plain Text
Duration : 2 h 37 min
Bit rate : 51 b/s
Count of elements : 1857
Stream size : 59.3 KiB (0%)
Title :  Hon3yHD.org
Language : English

-:: ScreenShots ::-






-:: DOWNLOAD ::-








Share this topic on FacebookShare this topic on GoogleShare this topic on MySpaceShare this topic on TwitterShare this topic on Yahoo

« Last Edit: October 19, 2018, 10:49:53 PM by RoBi007 »



Tags:
 

Related Topics

  Subject / Started by Replies Last post
0 Replies
1247 Views
Last post July 03, 2018, 12:43:43 PM
by shahzaibjaan
0 Replies
1156 Views
Last post July 04, 2018, 03:46:57 AM
by RoBi007
0 Replies
107 Views
Last post October 16, 2018, 05:25:51 PM
by RoBi007
0 Replies
70 Views
Last post October 17, 2018, 01:48:40 PM
by RoBi007
0 Replies
147 Views
Last post October 17, 2018, 02:43:03 PM
by shahzaibjaan




Back to top
Sitemap