Bobby Flay | Genocidal Organ Genocidal Organ (2017) Thriller, Science Fiction, AnimationDurch einen Atombombenangriff wurde die Stadt Sarajevo zerstört. Nicht nur das, auch das ganze Staatssystem änderte sich durch den Anschlag. Aus einer Demokratie wurde ein Überwachungsstaat. Ein Amerikaner gerät ins Visier eines Geheimdienstmitarbeiters, der ihn zum wahren Herzen der Finsternis führen soll: dem Genocidal Organ. | Woh Lamhe (2006) Hindi 720p WEB-DL AVC AC3 ESubs-Sun George (Requested)

+ wearforest.com »  :::: Bollywood Zone » Bollywood Movies (Original Rips)
|- Satyameva Jayate 2018 Hindi 720p WEB-DL x264 ESub [MW]


Electroncs Sale

Satyameva Jayate 2018 Hindi 720p WEB-DL x264 ESub [MW]

0 Members and 1 Guest are viewing this topic.

October 19, 2018, 02:54:53 PM
  • Legend Member
  • ****
  • Topic Author
  • Thank You: 1317
  • Reputation: 510
  • Activity:
    100%
  • Country: pk
  • Posts: 1555
  • Topics: 867
  • Join Date: Mar 2015
  • ShareSpark Member
Satyameva Jayate 2018 Hindi 720p WEB-DL x264 ESub [MW]









General
Format : Matroska
Format version : Version 4 / Version 2
File size : 1.20 GiB
Duration : 2 h 19 min
Overall bit rate : 1 226 kb/s

Video
ID : 1
Format : AVC
Format/Info : Advanced Video Codec
Format profile : [email protected]
Format settings : CABAC / 4 Ref Frames
Format settings, CABAC : Yes
Format settings, RefFrames : 4 frames
Codec ID : V_MPEG4/ISO/AVC
Duration : 2 h 19 min
Bit rate : 1 100 kb/s
Width : 1 280 pixels
Height : 532 pixels
Display aspect ratio : 2.40:1
Frame rate mode : Constant
Frame rate : 24.000 FPS
Color space : YUV
Chroma subsampling : 4:2:0
Bit depth : 8 bits
Scan type : Progressive
Bits/(Pixel*Frame) : 0.067
Stream size : 1.07 GiB (90%)
Writing library : x264 core 155 r2901 7d0ff22
Default : Yes
Forced : No

Audio
ID : 2
Format : AAC
Format/Info : Advanced Audio Codec
Format profile : HE-AAC / LC
Format settings : Explicit
Codec ID : A_AAC-2
Duration : 2 h 19 min
Bit rate : 127 kb/s
Channel(s) : 2 channels
Channel positions : Front: L R
Sampling rate : 48.0 kHz / 24.0 kHz
Frame rate : 23.438 FPS (1024 SPF)
Compression mode : Lossy
Stream size : 127 MiB (10%)
Language : Hindi
Default : Yes
Forced : No

Text
ID : 3
Format : UTF-8
Codec ID : S_TEXT/UTF8
Codec ID/Info : UTF-8 Plain Text
Duration : 2 h 12 min
Bit rate : 42 b/s
Count of elements : 1306
Stream size : 41.0 KiB (0%)
Language : English
Default : Yes
Forced : No





 :ss:













 :download:

























Share this topic on FacebookShare this topic on GoogleShare this topic on MySpaceShare this topic on TwitterShare this topic on Yahoo




Tags:
 

Related Topics





Back to top
Sitemap