FormatFactory 2.60 | Koitabi: True Tours Nanto | A Family for the Holidays

+ wearforest.com »  :::: Bollywood Zone » Bollywood Movies (Original Rips)
|- Nanu Ki Jaanu (2018) Hindi True WEB-HD - 1080p - AVC - AAC - 2.6GB ~TMV Exclusive


100% Bill Offer

Nanu Ki Jaanu (2018) Hindi True WEB-HD - 1080p - AVC - AAC - 2.6GB ~TMV Exclusive

pirzado and 1 Guest are viewing this topic.

October 17, 2018, 11:23:19 PM
  • Begginer
  • **
  • Topic Author
  • Thank You: 97
  • Reputation: 20
  • Activity:
    7.6%
  • Country: in
  • Posts: 89
  • Topics: 81
  • Join Date: Feb 2018
  • ShareSpark Member
Nanu Ki Jaanu 2018 Hindi True WEB-HD - 1080p - AVC - AAC - 2.6GB ~TMV Exclusive



General
Format                                   : Matroska
Format version                           : Version 4 / Version 2
File size                                : 2.66 GiB
Duration                                 : 2 h 5 min
Overall bit rate                         : 3 024 kb/s

Video
ID                                       : 1
Format                                   : AVC
Format/Info                              : Advanced Video Codec
Format profile                           : [email protected]
Format settings                          : CABAC / 4 Ref Frames
Format settings, CABAC                   : Yes
Format settings, ReFrames                : 4 frames
Codec ID                                 : V_MPEG4/ISO/AVC
Duration                                 : 2 h 5 min
Bit rate                                 : 3 000 kb/s
Width                                    : 1 920 pixels
Height                                   : 1 080 pixels
Display aspect ratio                     : 16:9
Frame rate mode                          : Constant
Frame rate                               : 25.000 FPS
Color space                              : YUV
Chroma subsampling                       : 4:2:0
Bit depth                                : 8 bits
Scan type                                : Progressive
Bits/(Pixel*Frame)                       : 0.058
Stream size                              : 2.60 GiB (98%)
Writing library                          : x264 core 152 r2854 e9a5903
Language                                 : Hindi
Default                                  : Yes
Forced                                   : No

Audio
ID                                       : 2
Format                                   : AAC
Format/Info                              : Advanced Audio Codec
Format profile                           : LC
Codec ID                                 : A_AAC-2
Duration                                 : 2 h 5 min
Bit rate                                 : 64.0 kb/s
Channel(s)                               : 2 channels
Channel positions                        : Front: L R
Sampling rate                            : 48.0 kHz
Frame rate                               : 46.875 FPS (1024 SPF)
Compression mode                         : Lossy
Stream size                              : 57.6 MiB (2%)
Language                                 : Hindi
Default                                  : Yes
Forced                                   : No





Share this topic on FacebookShare this topic on GoogleShare this topic on MySpaceShare this topic on TwitterShare this topic on Yahoo



Thanks given by:


October 18, 2018, 07:49:20 AM
Reply #1
  • Begginer
  • **
  • Thank You: 0
  • Reputation: 1
  • Activity:
    0.4%
  • Posts: 78
  • Topics: 0
  • Join Date: Mar 2013
  • ShareSpark Member

15 hours ago
Reply #2
  • Hero Member
  • ***
  • Thank You: 0
  • Reputation: 7
  • Activity:
    8%
  • Country: au
  • Posts: 386
  • Topics: 0
  • Join Date: Oct 2017
  • ShareSpark Member

13 hours ago
Reply #3
  • Semi Newbie
  • **
  • Thank You: 0
  • Reputation: 0
  • Activity:
    5.2%
  • Country: de
  • Posts: 36
  • Topics: 0
  • Join Date: Aug 2016
  • ShareSpark Member

Tags:
 

Related Topics





Back to top
Sitemap