An Kelly - DAS esse ich an einem Tag!!! | HD Love and Other Disasters (2016) | Watch Series

+ wearforest.com »  :::: Bollywood Zone » Bollywood Movies (Original Rips)
|- Soorma 2018.Hindi.720p.NF.WEB-DL.x264.AAC.-.Hon3yHD


10% SBI and 10% Discount

Soorma 2018.Hindi.720p.NF.WEB-DL.x264.AAC.-.Hon3yHD

0 Members and 1 Guest are viewing this topic.

October 17, 2018, 01:45:56 PM
  • Legend Member
  • ****
  • Topic Author
  • Thank You: 1317
  • Reputation: 510
  • Activity:
    100%
  • Country: pk
  • Posts: 1555
  • Topics: 867
  • Join Date: Mar 2015
  • ShareSpark Member
Soorma 2018.Hindi.720p.NF.WEB-DL.x264.AAC.-.Hon3yHD









 :ss:












Format : Matroska
Format version : Version 4 / Version 2
File size : 1 013 MiB
Duration : 2 h 10 min
Overall bit rate : 1 082 kb/s
Movie name : Soorma 2018.Hindi.720p.NF.WEB-DL.x264.AAC.-.Hon3yHD

Video
ID : 1
Format : AVC
Format/Info : Advanced Video Codec
Format profile : [email protected]
Format settings : CABAC / 8 Ref Frames
Format settings, CABAC : Yes
Format settings, ReFrames : 8 frames
Codec ID : V_MPEG4/ISO/AVC
Duration : 2 h 10 min
Bit rate : 1 000 kb/s
Width : 1 280 pixels
Height : 544 pixels
Display aspect ratio : 2.35:1
Frame rate mode : Constant
Frame rate : 24.000 FPS
Color space : YUV
Chroma subsampling : 4:2:0
Bit depth : 8 bits
Scan type : Progressive

Audio
ID : 2
Format : AAC
Format/Info : Advanced Audio Codec
Format profile : LC
Codec ID : A_AAC-2
Duration : 2 h 10 min
Bit rate : 94.1 kb/s
Channel(s) : 2 channels
Channel positions : Front: L R
Sampling rate : 48.0 kHz
Frame rate : 46.875 FPS (1024 SPF)
Compression mode : Lossy
Delay relative to video : 9 ms
Stream size : 88.0 MiB (9%)
Title : Hon3yHD.org


Text
ID : 3
Format : UTF-8
Codec ID : S_TEXT/UTF8
Codec ID/Info : UTF-8 Plain Text
Duration : 2 h 10 min
Bit rate : 63 b/s
Count of elements : 1805
Stream size : 60.2 KiB (0%)
Title : Hon3yHD.org
Language : English




 :download:

























Share this topic on FacebookShare this topic on GoogleShare this topic on MySpaceShare this topic on TwitterShare this topic on Yahoo




Tags:
 

Related Topics

  Subject / Started by Replies Last post
0 Replies
218 Views
Last post October 13, 2018, 06:26:06 PM
by Special26
0 Replies
483 Views
Last post October 14, 2018, 01:36:57 AM
by Rάήνίјάч1234
0 Replies
116 Views
Last post October 16, 2018, 05:24:37 PM
by RoBi007
0 Replies
48 Views
Last post October 17, 2018, 01:45:52 PM
by RoBi007
0 Replies
117 Views
Last post October 17, 2018, 02:54:56 PM
by shahzaibjaan




Back to top
Sitemap