Architektur+Technik – September 2018 | Blade of the Immortal | Eric Kripke

+ wearforest.com »  :::: Bollywood Zone » Bollywood Movies (Original Rips)
|- Sanju (2018) Hindi 720p WEB-RIP x264 AC3 DD 5.1 - ESUB ~ Ranvijay


Samsung Galaxy 8

Sanju (2018) Hindi 720p WEB-RIP x264 AC3 DD 5.1 - ESUB ~ Ranvijay

0 Members and 1 Guest are viewing this topic.

October 15, 2018, 09:53:53 AM
  • Global Moderator
  • Legend Member
  • *****
  • Topic Author
  • Thank You: 10068
  • Reputation: 2077
  • Activity:
    100%
  • Country: in
  • Posts: 5231
  • Topics: 4317
  • Join Date: Jan 2014
  • ıllıllı ѕмoĸιng ιѕ good ғor нealтн ıllıllı :)




Sanju (2018) Hindi 720p WEB-RIP x264 AC3 DD 5.1 - ESUB ~ Ranvijay

Buy RDP Online




Quote

Source                                   : NbT
Format                                   : Matroska
Format version                           : Version 4 / Version 2
File size                                : 1.50 GiB
Duration                                 : 2 h 38 min
Overall bit rate                         : 1 349 kb/s
Movie name                               : Sanju (2018) Hindi 720p WEB-RIP x264 AC3 DD 5.1 - ESUB ~ Ranvijay

Video
ID                                       : 1
Format                                   : AVC
Format/Info                              : Advanced Video Codec
Duration                                 : 2 h 38 min
Bit rate                                 : 1 123 kb/s
Width                                    : 1 280 pixels
Height                                   : 544 pixels
Display aspect ratio                     : 2.35:1
Frame rate mode                          : Constant
Frame rate                               : 24.000 FPS
Color space                              : YUV
Chroma subsampling                       : 4:2:0
Bit depth                                : 8 bits
Scan type                                : Progressive
Bits/(Pixel*Frame)                       : 0.067
Stream size                              : 1.25 GiB (83%)
Title                                    : ~Ranvijay~

Audio
ID                                       : 2
Format                                   : AC-3
Format/Info                              : Audio Coding 3
Codec ID                                 : A_AC3
Duration                                 : 2 h 38 min
Bit rate mode                            : Constant
Bit rate                                 : 224 kb/s
Channel(s)                               : 6 channels
Channel positions                        : Front: L C R, Side: L R, LFE
Sampling rate                            : 48.0 kHz
Frame rate                               : 31.250 FPS (1536 SPF)
Bit depth                                : 16 bits
Compression mode                         : Lossy
Stream size                              : 255 MiB (17%)
Title                                    : ~Ranvijay~
Language                                 : Hindi
Service kind                             : Complete Main
Default                                  : Yes
Forced                                   : Yes

Text
ID                                       : 3
Format                                   : UTF-8
Codec ID                                 : S_TEXT/UTF8
Codec ID/Info                            : UTF-8 Plain Text
Duration                                 : 2 h 37 min
Bit rate                                 : 51 b/s
Count of elements                        : 1857
Stream size                              : 59.3 KiB (0%)
Title                                    : ~Ranvijay~
Language                                 : English
Default                                  : Yes
Forced                                   : Yes

SOURCE


ENCODE


 :ss:














:download:

Quote











Sample

File Leeched & Uploaded From




Don't walk as you are king, walk as you don't care who the king is....!!
Never argue with an idiot. They drag you down to their level and then beat you with experience?

Share this topic on FacebookShare this topic on GoogleShare this topic on MySpaceShare this topic on TwitterShare this topic on Yahoo

« Last Edit: October 15, 2018, 10:05:35 AM by Rάήνίјάч1234 »



Don't walk as you are king, walk as you don't care who the king is....!!

Thanks given by:


October 15, 2018, 10:14:51 AM
Reply #1
  • Semi Newbie
  • **
  • Thank You: 0
  • Reputation: 1
  • Activity:
    0.6%
  • Country: il
  • Posts: 8
  • Topics: 0
  • Join Date: Apr 2018
  • ShareSpark Member
please upload 1080p in GDrive thanks  :rep: added

October 15, 2018, 10:18:10 AM
Reply #2
  • Global Moderator
  • Legend Member
  • *****
  • Topic Author
  • Thank You: 10068
  • Reputation: 2077
  • Activity:
    100%
  • Country: in
  • Posts: 5231
  • Topics: 4317
  • Join Date: Jan 2014
  • ıllıllı ѕмoĸιng ιѕ good ғor нealтн ıllıllı :)
please upload 1080p in GDrive thanks  :rep: added
It Will Take 4 Hours More Kindly Wait

Don't walk as you are king, walk as you don't care who the king is....!!

October 15, 2018, 10:25:22 AM
Reply #3
  • Team SSX
  • Legend Member
  • ***
  • Thank You: 2992
  • Reputation: 787
  • Activity:
    100%
  • Country: np
  • Posts: 1877
  • Topics: 1079
  • Join Date: Jul 2016
  • Love Forever !!
Low Size With Full Quality  Share !!         :rep:           :hats:

Tags:
 

Related Topics





Back to top
Sitemap