Read More | Season 1 Episode 16 Joey and the Tonight Show | Download mp3

+ wearforest.com »  :::: Bollywood Zone » Bollywood Movies (Original Rips)
|- SANJU 2018 720P NETFLIX WEB-DL DD+ 5.1 H264


Redmi 6A

SANJU 2018 720P NETFLIX WEB-DL DD+ 5.1 H264

0 Members and 1 Guest are viewing this topic.

October 15, 2018, 12:53:56 AM
  • Global Moderator
  • Legend Member
  • *****
  • Topic Author
  • Thank You: 10073
  • Reputation: 2078
  • Activity:
    100%
  • Country: in
  • Posts: 5234
  • Topics: 4319
  • Join Date: Jan 2014
  • ıllıllı ѕмoĸιng ιѕ good ғor нealтн ıllıllı :)
SANJU 2018 720P NETFLIX WEB-DL DD+ 5.1 H264



Quote
General
Complete name                            : C:\Sanju 2018 720p NF WEB-DL DD+ 5.1 H264.mkv
Format                                  : Matroska
Format version                          : Version 4 / Version 2
File size                                : 3.75 GiB
Duration                                : 2 h 38 min
Overall bit rate mode                    : Variable
Overall bit rate                        : 3 378 kb/s
Encoded date                            : UTC 2018-10-14 16:49:21 / UTC 2018-09-03 22:39:45
Writing application                      : mkvmerge v11.0.0 ('Alive') 64bit
Writing library                          : libebml v1.3.4 + libmatroska v1.4.5 / Lavf58.0.0


Video
ID                                      : 1
Format                                  : AVC
Format/Info                              : Advanced Video Codec
Format profile                          : [email protected]
Format settings, CABAC                  : Yes
Format settings, ReFrames                : 3 frames
Codec ID                                : V_MPEG4/ISO/AVC
Duration                                : 2 h 38 min
Bit rate mode                            : Variable
Bit rate                                : 2 740 kb/s
Maximum bit rate                        : 4 110 kb/s
Width                                    : 1 280 pixels
Height                                  : 720 pixels
Display aspect ratio                    : 16:9
Frame rate mode                          : Constant
Frame rate                              : 24.000 FPS
Color space                              : YUV
Chroma subsampling                      : 4:2:0
Bit depth                                : 8 bits
Scan type                                : Progressive
Bits/(Pixel*Frame)                      : 0.124
Stream size                              : 2.96 GiB (79%)
Writing library                          : x264 core 148 r2715 7e75228
Encoding settings                        : cabac=1 / ref=3 / deblock=1:0:0 / analyse=0x1:0x111 / me=umh / subme=10 / psy=1 / psy_rd=1.00:0.00 / mixed_ref=1 / me_range=24 / chroma_me=1 / trellis=2 / 8x8dct=0 / cqm=0 / deadzone=21,11 / fast_pskip=1 / chroma_qp_offset=-2 / threads=8 / lookahead_threads=1 / sliced_threads=0 / nr=0 / decimate=1 / interlaced=0 / bluray_compat=0 / stitchable=1 / constrained_intra=0 / bframes=2 / b_pyramid=0 / b_adapt=2 / b_bias=0 / direct=3 / weightb=1 / open_gop=0 / weightp=2 / keyint=48 / keyint_min=25 / scenecut=0 / intra_refresh=0 / rc_lookahead=48 / rc=2pass / mbtree=1 / bitrate=2740 / ratetol=1.0 / qcomp=0.50 / qpmin=6 / qpmax=51 / qpstep=4 / cplxblur=20.0 / qblur=0.5 / vbv_maxrate=4110 / vbv_bufsize=5480 / nal_hrd=vbr / filler=0 / ip_ratio=1.40 / aq=1:1.00
Default                                  : Yes
Forced                                  : No
Statistics Tags Issue                    : mkvmerge v11.0.0 ('Alive') 64bit 2018-10-14 16:49:21 / mkvmerge v11.0.0 ('Alive') 64bit 2018-10-14 16:49:21 / UTC 2018-09-03 22:39:45
FromStats_BitRate                        : 2734921
FromStats_Duration                      : 02:38:56.625000000
FromStats_FrameCount                    : 228879
FromStats_StreamSize                    : 3260240634


Audio
ID                                      : 2
Format                                  : E-AC-3
Format/Info                              : Enhanced Audio Coding 3
Format settings, Endianness              : Big
Codec ID                                : A_EAC3
Duration                                : 2 h 38 min
Bit rate mode                            : Constant
Bit rate                                : 640 kb/s
Channel(s)                              : 6 channels
Channel positions                        : Front: L C R, Side: L R, LFE
Sampling rate                            : 48.0 kHz
Frame rate                              : 187.500 FPS (256 spf)
Compression mode                        : Lossy
Stream size                              : 728 MiB (19%)
Service kind                            : Complete Main
Default                                  : Yes
Forced                                  : No
Encoded date                            : UTC 2018-09-03 22:39:45
HANDLER_NAME                            : Audio Media Handler
Statistics Tags Issue                    : mkvmerge v11.0.0 ('Alive') 64bit 2018-10-14 16:49:21 / mkvmerge v11.0.0 ('Alive') 64bit 2018-10-14 16:49:21 / UTC 2018-09-03 22:39:45
FromStats_BitRate                        : 640000
FromStats_Duration                      : 02:38:56.672000000
FromStats_FrameCount                    : 298021
FromStats_StreamSize                    : 762933760


Text #1
ID                                      : 3
Format                                  : UTF-8
Codec ID                                : S_TEXT/UTF8
Codec ID/Info                            : UTF-8 Plain Text
Title                                    : English
Language                                : English
Default                                  : Yes
Forced                                  : Yes
Statistics Tags Issue                    : mkvmerge v11.0.0 ('Alive') 64bit 2018-10-14 16:49:21 / mkvmerge v11.0.0 ('Alive') 64bit 2018-10-14 16:49:21 / UTC 2018-09-03 22:39:45
FromStats_BitRate                        : 67
FromStats_Duration                      : 02:37:04.959000000
FromStats_FrameCount                    : 1857
FromStats_StreamSize                    : 79808







:download:

Quote

File Leeched & Uploaded From




Don't walk as you are king, walk as you don't care who the king is....!!
Never argue with an idiot. They drag you down to their level and then beat you with experience?

Share this topic on FacebookShare this topic on GoogleShare this topic on MySpaceShare this topic on TwitterShare this topic on Yahoo

« Last Edit: October 15, 2018, 12:56:31 AM by Rάήνίјάч1234 »



Don't walk as you are king, walk as you don't care who the king is....!!

Thanks given by:


October 15, 2018, 06:23:50 AM
Reply #1
  • Team SSX
  • Legend Member
  • ***
  • Thank You: 3042
  • Reputation: 795
  • Activity:
    100%
  • Country: np
  • Posts: 1888
  • Topics: 1086
  • Join Date: Jul 2016
  • Love Forever !!
 :bravo:          :rep:           :thank:

October 15, 2018, 08:31:05 AM
Reply #2
  • Elite Forces
  • ****
  • Thank You: 231
  • Reputation: 99
  • Activity:
    8.8%
  • Country: sa
  • Posts: 1150
  • Topics: 116
  • Join Date: Jan 2017
  • ShareSpark Member
im waiting for clear print   :claps: :like: :thanks:

Tags:
 

Related Topics





Back to top
Sitemap