TV Shows | Download | visualtvdotlive

+ wearforest.com »  :::: Bollywood Zone » Bollywood Movies (Original Rips)
|-  Sanju (2018) Hindi 1080p NF WEB-DL H264 AC3 DD5.1 Msub - NbT


100% Recharge Offer

Sanju (2018) Hindi 1080p NF WEB-DL H264 AC3 DD5.1 Msub - NbT

0 Members and 1 Guest are viewing this topic.

October 14, 2018, 11:57:49 PM
  • Begginer
  • **
  • Topic Author
  • Thank You: 97
  • Reputation: 20
  • Activity:
    7.4%
  • Country: in
  • Posts: 89
  • Topics: 81
  • Join Date: Feb 2018
  • ShareSpark Member
Sanju 2018 Hindi 1080p NF WEB-DL H264 DDP 5.1 - NbT



General
Format                      : Matroska
Format version              : Version 4 / Version 2
File size                   : 6.38 GiB
Duration                    : 2 h 38 min
Overall bit rate mode       : Variable
Overall bit rate            : 5 746 kb/s
Encoded date                : UTC 2018-10-14 15:58:16
Writing application         : mkvmerge v26.0.0 ('In The Game') 64-bit
Writing library             : libebml v1.3.6 + libmatroska v1.4.9
Cover                       : Yes
Attachments                 : cover.jpg

Video
ID                          : 1
Format                      : AVC
Format/Info                 : Advanced Video Codec
Format profile              : [email protected]
Format settings, CABAC      : Yes
Format settings, RefFrames  : 3 frames
Codec ID                    : V_MPEG4/ISO/AVC
Duration                    : 2 h 38 min
Bit rate mode               : Variable
Bit rate                    : 5 110 kb/s
Maximum bit rate            : 7 665 kb/s
Width                       : 1 920 pixels
Height                      : 1 080 pixels
Display aspect ratio        : 16:9
Frame rate mode             : Constant
Frame rate                  : 24.000 FPS
Color space                 : YUV
Chroma subsampling          : 4:2:0
Bit depth                   : 8 bits
Scan type                   : Progressive
Bits/(Pixel*Frame)          : 0.103
Stream size                 : 5.66 GiB (89%)
Writing library             : x264 core 148 r2715 7e75228
Default                     : Yes
Forced                      : No

Audio
ID                          : 2
Format                      : E-AC-3
Format/Info                 : Enhanced Audio Coding 3
Format settings, Endianness : Big
Codec ID                    : A_EAC3
Duration                    : 2 h 38 min
Bit rate mode               : Constant
Bit rate                    : 640 kb/s
Channel(s)                  : 6 channels
Channel positions           : Front: L C R, Side: L R, LFE
Sampling rate               : 48.0 kHz
Frame rate                  : 187.500 FPS (256 SPF)
Compression mode            : Lossy
Stream size                 : 728 MiB (11%)
Title                       : Hindi
Language                    : Hindi
Service kind                : Complete Main
Default                     : No
Forced                      : No

Text #1
ID                          : 3
Format                      : UTF-8
Codec ID                    : S_TEXT/UTF8
Codec ID/Info               : UTF-8 Plain Text
Duration                    : 2 h 37 min
Bit rate                    : 51 b/s
Count of elements           : 1857
Stream size                 : 59.3 KiB (0%)
Title                       : English [Full]
Language                    : English
Default                     : No
Forced                      : No

Text #2
ID                          : 4
Format                      : UTF-8
Codec ID                    : S_TEXT/UTF8
Codec ID/Info               : UTF-8 Plain Text
Duration                    : 2 h 37 min
Bit rate                    : 60 b/s
Count of elements           : 2120
Stream size                 : 69.2 KiB (0%)
Title                       : Spanish [Full]
Language                    : Spanish
Default                     : No
Forced                      : No

Text #3
ID                          : 5
Format                      : UTF-8
Codec ID                    : S_TEXT/UTF8
Codec ID/Info               : UTF-8 Plain Text
Duration                    : 2 h 37 min
Bit rate                    : 66 b/s
Count of elements           : 2062
Stream size                 : 76.5 KiB (0%)
Title                       : French [Full]
Language                    : French
Default                     : No
Forced                      : No

Text #4
ID                          : 6
Format                      : UTF-8
Codec ID                    : S_TEXT/UTF8
Codec ID/Info               : UTF-8 Plain Text
Duration                    : 2 h 37 min
Bit rate                    : 65 b/s
Count of elements           : 2048
Stream size                 : 75.6 KiB (0%)
Title                       : German [Full]
Language                    : German
Default                     : No
Forced                      : No

Text #5
ID                          : 7
Format                      : UTF-8
Codec ID                    : S_TEXT/UTF8
Codec ID/Info               : UTF-8 Plain Text
Duration                    : 2 h 37 min
Bit rate                    : 59 b/s
Count of elements           : 2137
Stream size                 : 68.9 KiB (0%)
Title                       : Italian [Full]
Language                    : Italian
Default                     : No
Forced                      : No

Text #6
ID                          : 8
Format                      : UTF-8
Codec ID                    : S_TEXT/UTF8
Codec ID/Info               : UTF-8 Plain Text
Duration                    : 2 h 37 min
Bit rate                    : 58 b/s
Count of elements           : 2101
Stream size                 : 67.7 KiB (0%)
Title                       : Brazilian Portuguese [Full]
Language                    : Portuguese
Default                     : No
Forced                      : No

Text #7
ID                          : 9
Format                      : UTF-8
Codec ID                    : S_TEXT/UTF8
Codec ID/Info               : UTF-8 Plain Text
Duration                    : 2 h 38 min
Bit rate                    : 63 b/s
Count of elements           : 2057
Stream size                 : 73.9 KiB (0%)
Title                       : Turkish [Full]
Language                    : Turkish
Default                     : No
Forced                      : No

Text #8
ID                          : 10
Format                      : UTF-8
Codec ID                    : S_TEXT/UTF8
Codec ID/Info               : UTF-8 Plain Text
Duration                    : 2 h 34 min
Bit rate                    : 62 b/s
Count of elements           : 1982
Stream size                 : 71.0 KiB (0%)
Title                       : Dutch [Full]
Language                    : Dutch
Default                     : No
Forced                      : No

Text #9
ID                          : 11
Format                      : UTF-8
Codec ID                    : S_TEXT/UTF8
Codec ID/Info               : UTF-8 Plain Text
Duration                    : 2 h 37 min
Bit rate                    : 94 b/s
Count of elements           : 2087
Stream size                 : 109 KiB (0%)
Title                       : Arabic [Full]
Language                    : Arabic
Default                     : No
Forced                      : No

Text #10
ID                          : 12
Format                      : UTF-8
Codec ID                    : S_TEXT/UTF8
Codec ID/Info               : UTF-8 Plain Text
Duration                    : 2 h 37 min
Bit rate                    : 22 b/s
Count of elements           : 398
Stream size                 : 25.5 KiB (0%)
Title                       : Hindi [Forced]
Language                    : Hindi
Default                     : No
Forced                      : Yes

Text #11
ID                          : 13
Format                      : UTF-8
Codec ID                    : S_TEXT/UTF8
Codec ID/Info               : UTF-8 Plain Text
Duration                    : 2 h 37 min
Bit rate                    : 58 b/s
Count of elements           : 2060
Stream size                 : 67.4 KiB (0%)
Title                       : Indonesian [Full]
Language                    : Indonesian
Default                     : No
Forced                      : No

Text #12
ID                          : 14
Format                      : UTF-8
Codec ID                    : S_TEXT/UTF8
Codec ID/Info               : UTF-8 Plain Text
Duration                    : 2 h 37 min
Bit rate                    : 144 b/s
Count of elements           : 2053
Stream size                 : 166 KiB (0%)
Title                       : Thai [Full]
Language                    : Thai
Default                     : No
Forced                      : No

Text #13
ID                          : 15
Format                      : UTF-8
Codec ID                    : S_TEXT/UTF8
Codec ID/Info               : UTF-8 Plain Text
Duration                    : 2 h 37 min
Bit rate                    : 45 b/s
Count of elements           : 1977
Stream size                 : 52.8 KiB (0%)
Title                       : Chinese (Simplified) [Full]
Language                    : Chinese
Default                     : No
Forced                      : No

Text #14
ID                          : 16
Format                      : UTF-8
Codec ID                    : S_TEXT/UTF8
Codec ID/Info               : UTF-8 Plain Text
Duration                    : 2 h 37 min
Bit rate                    : 46 b/s
Count of elements           : 1857
Stream size                 : 53.6 KiB (0%)
Title                       : Chinese (Traditional) [Full]
Language                    : Chinese
Default                     : No
Forced                      : No












Share this topic on FacebookShare this topic on GoogleShare this topic on MySpaceShare this topic on TwitterShare this topic on Yahoo

« Last Edit: October 15, 2018, 12:11:28 AM by Katyayan »


Thanks given by:


October 15, 2018, 09:57:01 AM
Reply #1
  • Devoted Member
  • **
  • Thank You: 0
  • Reputation: 6
  • Activity:
    34.8%
  • Country: in
  • Posts: 172
  • Topics: 0
  • Join Date: Sep 2018
  • ShareSpark Member

Tags: Biography Drama 
 

Related Topics

  Subject / Started by Replies Last post
4 Replies
676 Views
Last post May 07, 2018, 05:16:46 PM
by ~DoSANJiT
0 Replies
578 Views
Last post June 12, 2018, 04:25:49 PM
by Special26
4 Replies
708 Views
Last post October 16, 2018, 06:51:02 PM
by Changezi
2 Replies
551 Views
Last post October 15, 2018, 08:31:05 AM
by Vagabond
0 Replies
138 Views
Last post October 16, 2018, 05:27:26 PM
by RoBi007




Back to top
Sitemap