indian264 | 24: Live Another Day Action | Spirit Riding Free

+ wearforest.com »  :::: Bollywood Zone » Bollywood Movies (Original Rips)
|- Sanju (2018) Hindi Proper True HQ HDTV - 720p - UNTOUCHED - AVC - AAC - 2.5GB


10% SBI and 10% Discount

Sanju (2018) Hindi Proper True HQ HDTV - 720p - UNTOUCHED - AVC - AAC - 2.5GB

0 Members and 1 Guest are viewing this topic.

October 14, 2018, 06:23:14 PM
  • Devoted Member
  • **
  • Topic Author
  • Thank You: 75
  • Reputation: 19
  • Activity:
    0.2%
  • Country: in
  • Posts: 197
  • Topics: 155
  • Join Date: Aug 2015
  • ShareSpark Member
Sanju (2018) Hindi Proper True HQ HDTV-Rip - 720p - x264 - 5.1 - 1.4GB



Video
ID : 1
Format : AVC
Format/Info : Advanced Video Codec
Format profile : [email protected]
Format settings : CABAC / 4 Ref Frames
Format settings, CABAC : Yes
Format settings, RefFrames : 4 frames
Codec ID : V_MPEG4/ISO/AVC
Duration : 2 h 33 min
Bit rate : 1 141 kb/s
Width : 1 280 pixels
Height : 544 pixels
Display aspect ratio : 2.35:1
Frame rate mode : Constant
Frame rate : 25.000 FPS
Color space : YUV
Chroma subsampling : 4:2:0
Bit depth : 8 bits
Scan type : Progressive
Bits/(Pixel*Frame) : 0.066
Stream size : 1.23 GiB (90%)
Title :

Writing library : x264 core 155 r2901 7d0ff22
Encoding settings : cabac=1 / ref=1 / deblock=1:0:0 / analyse=0x3:0x113 / me=hex / subme=2 / psy=1 / psy_rd=1.00:0.00 / mixed_ref=0 / me_range=16 / chroma_me=1 / trellis=0 / 8x8dct=1 / cqm=0 / deadzone=21,11 / fast_pskip=1 / chroma_qp_offset=0 / threads=12 / lookahead_threads=4 / sliced_threads=0 / nr=0 / decimate=1 / interlaced=0 / bluray_compat=0 / constrained_intra=0 / bframes=3 / b_pyramid=2 / b_adapt=1 / b_bias=0 / direct=1 / weightb=1 / open_gop=0 / weightp=1 / keyint=250 / keyint_min=25 / scenecut=40 / intra_refresh=0 / rc_lookahead=10 / rc=abr / mbtree=1 / bitrate=1141 / ratetol=1.0 / qcomp=0.60 / qpmin=0 / qpmax=69 / qpstep=4 / vbv_maxrate=62500 / vbv_bufsize=78125 / nal_hrd=none / filler=0 / ip_ratio=1.40 / aq=1:1.00
Default : Yes
Forced : No
Color range : Limited
Color primaries : BT.709
Transfer characteristics : BT.709
Matrix coefficients : BT.709

Audio
ID : 2
Format : AAC LC
Format/Info : Advanced Audio Codec Low Complexity
Codec ID : A_AAC-2
Duration : 2 h 33 min
Bit rate : 128 kb/s
Channel(s) : 2 channels
Channel layout : L R
Sampling rate : 48.0 kHz
Frame rate : 46.875 FPS (1024 SPF)
Compression mode : Lossy
Delay relative to video : -21 ms
Stream size : 141 MiB (10%)
Title :

Default : Yes
Forced : No








Share this topic on FacebookShare this topic on GoogleShare this topic on MySpaceShare this topic on TwitterShare this topic on Yahoo

« Last Edit: October 14, 2018, 06:25:42 PM by ★ iamPK ★ »



Tags:
 

Related Topics

  Subject / Started by Replies Last post
1 Replies
2194 Views
Last post June 30, 2018, 01:36:03 PM
by MatrixCode
0 Replies
1250 Views
Last post July 03, 2018, 12:43:43 PM
by shahzaibjaan
0 Replies
1160 Views
Last post July 04, 2018, 03:46:57 AM
by RoBi007
0 Replies
167 Views
Last post October 15, 2018, 12:46:41 AM
by RoBi007
0 Replies
118 Views
Last post October 16, 2018, 05:25:51 PM
by RoBi007




Back to top
Sitemap