Sasami-san Ganbaranai Sub Indo Batch Eps 1-12 Lengkap | HD Shock and Awe | Princess Lover!

+ wearforest.com »  :::: Bollywood Zone » Bollywood Movies (Original Rips)
|- Soorma (2018) Hindi 720p WEB-RIP x264 AC3 DD 5.1 - ESUB ~Ranvijay


10% SBI and 10% Discount

Soorma (2018) Hindi 720p WEB-RIP x264 AC3 DD 5.1 - ESUB ~Ranvijay

0 Members and 1 Guest are viewing this topic.

October 14, 2018, 01:36:57 AM
  • Global Moderator
  • Legend Member
  • *****
  • Topic Author
  • Thank You: 10087
  • Reputation: 2081
  • Activity:
    100%
  • Country: in
  • Posts: 5241
  • Topics: 4324
  • Join Date: Jan 2014
  • ıllıllı ѕмoĸιng ιѕ good ғor нealтн ıllıllı :)




Soorma (2018) Hindi 720p WEB-RIP x264 AC3 DD 5.1 - ESUB ~Ranvijay

Buy RDP Online




Quote

Source                                   : NbT
General
Format                                   : Matroska
Format version                           : Version 4 / Version 2
File size                                : 1.50 GiB
Duration                                 : 2 h 10 min
Overall bit rate                         : 1 639 kb/s
Movie name                               : Soorma (2018) Hindi 720p WEB-RIP x264 AC3 DD 5.1 - ESUB ~Ranvijay

Video
ID                                       : 1
Format                                   : AVC
Format/Info                              : Advanced Video Codec
Duration                                 : 2 h 10 min
Bit rate                                 : 1 414 kb/s
Width                                    : 1 280 pixels
Height                                   : 544 pixels
Display aspect ratio                     : 2.35:1
Frame rate mode                          : Constant
Frame rate                               : 24.000 FPS
Color space                              : YUV
Chroma subsampling                       : 4:2:0
Bit depth                                : 8 bits
Scan type                                : Progressive
Bits/(Pixel*Frame)                       : 0.085
Stream size                              : 1.29 GiB (86%)
Title                                    : ~Ranvijay~

Audio
ID                                       : 2
Format                                   : AC-3
Format/Info                              : Audio Coding 3
Codec ID                                 : A_AC3
Duration                                 : 2 h 10 min
Bit rate mode                            : Constant
Bit rate                                 : 224 kb/s
Channel(s)                               : 6 channels
Channel positions                        : Front: L C R, Side: L R, LFE
Sampling rate                            : 48.0 kHz
Frame rate                               : 31.250 FPS (1536 SPF)
Bit depth                                : 16 bits
Compression mode                         : Lossy
Stream size                              : 210 MiB (14%)
Title                                    : ~Ranvijay~
Language                                 : Hindi
Service kind                             : Complete Main
Default                                  : Yes
Forced                                   : Yes

Text
ID                                       : 3
Format                                   : UTF-8
Codec ID                                 : S_TEXT/UTF8
Codec ID/Info                            : UTF-8 Plain Text
Duration                                 : 2 h 10 min
Bit rate                                 : 63 b/s
Count of elements                        : 1805
Stream size                              : 60.2 KiB (0%)
Title                                    : ~Ranvijay~
Language                                 : English
Default                                  : Yes
Forced                                   : Yes














:download:

Quote












Sample

File Leeched & Uploaded From




Don't walk as you are king, walk as you don't care who the king is....!!
Never argue with an idiot. They drag you down to their level and then beat you with experience?

Share this topic on FacebookShare this topic on GoogleShare this topic on MySpaceShare this topic on TwitterShare this topic on Yahoo

« Last Edit: October 14, 2018, 02:00:31 AM by Rάήνίјάч1234 »



Don't walk as you are king, walk as you don't care who the king is....!!

Thanks given by:


Tags:
 

Related Topics





Back to top
Sitemap