Stream in HD | Top-Inhalte | Lake Placid: Legacy Streaming HD Lake Placid: Legacy Streaming Full-HD Lake Placid: Legacy Streaming HD [1080p] gratuit en illimite - Legacy trouve l'équipe de jeunes explorateurs à la découverte des secrets d'une zone éloignée des cartes modernes et cachée derrière des clôtures électriques. Cependant, une fois qu'ils atteignent le centre du lac ...

+ wearforest.com »  :::: Bollywood Zone » Regional Movies » Bengali Movies
|-  Karenjit Kaur [Sunny Leone (2018 - Complete Season 2)] - 1CD - Bengali Web Series Rip[xMp4 - AAC3(


Amazon Pantry Offer

Karenjit Kaur [Sunny Leone (2018 - Complete Season 2)] - 1CD - Bengali Web Series Rip[xMp4 - AAC3(

0 Members and 1 Guest are viewing this topic.

October 12, 2018, 11:37:02 AM
  • Semi Newbie
  • **
  • Topic Author
  • Thank You: 0
  • Reputation: -1
  • Activity:
    7%
  • Country: bd
  • Posts: 35
  • Topics: 35
  • Join Date: Oct 2018
  • ShareSpark Member
      Karenjit Kaur [Sunny Leone (2018 - Complete Season 2)] -
1CD - Bengali Web Series Rip[xMp4 - AAC3(5.1Ch)]     
 




Code: [Select]
General
Format                                   : MPEG-4
Format profile                           : Base Media
Codec ID                                 : isom (isom)
File size                                : 701 MiB
Duration                                 : 2 h 21 min

Video
ID                                       : 1
Format                                   : AVC
Format/Info                              : Advanced Video Codec
Format profile                           : [email protected]
Format settings                          : CABAC / 4 Ref Frames
Format settings, CABAC                   : Yes
Format settings, RefFrames               : 4 frames
Codec ID                                 : avc1
Codec ID/Info                            : Advanced Video Coding
Duration                                 : 2 h 21 min
Bit rate                                 : 561 kb/s
Maximum bit rate                         : 2 786 kb/s
Width                                    : 640 pixels
Height                                   : 272 pixels
Display aspect ratio                     : 2.35:1
Frame rate mode                          : Constant
Frame rate                               : 25.000 FPS
Color space                              : YUV
Chroma subsampling                       : 4:2:0
Bit depth                                : 8 bits
Scan type                                : Progressive
Bits/(Pixel*Frame)                       : 0.129
Stream size                              : 568 MiB (81%)

Audio
ID                                       : 2
Format                                   : AAC LC SBR
Commercial name                          : HE-AAC
Format settings                          : Explicit
Codec ID                                 : mp4a-40-2
Duration                                 : 2 h 21 min
Bit rate mode                            : Variable
Bit rate                                 : 128 kb/s
Maximum bit rate                         : 137 kb/s
Channel(s)                               : 6 channels
Channel layout                           : C L R Ls Rs LFE
Sampling rate                            : 48.0 kHz
Stream size                              : 129 MiB (18%)
  Thumbnail   





OR

OR

Share this topic on FacebookShare this topic on GoogleShare this topic on MySpaceShare this topic on TwitterShare this topic on Yahoo

« Last Edit: October 20, 2018, 02:12:00 PM by BUNGILI »



Tags:
 

Related Topics





Back to top