Thám Tử Lừng Danh Conan chap 183 | Madison Lush Gets Assfucked On The Kitchen Table XXX SD Adult | streamcherry VF BDRIP

+ wearforest.com »  :::: Bollywood Zone » Bollywood Movies (Original Rips)
|- Fanney Khan (2018) Hindi 720p AMZN-DL H264 AAC DD2.0 ~Katyayan Exclusive


HDFC 10% Off

Fanney Khan (2018) Hindi 720p AMZN-DL H264 AAC DD2.0 ~Katyayan Exclusive

0 Members and 1 Guest are viewing this topic.

October 12, 2018, 11:30:06 AM
  • Begginer
  • **
  • Topic Author
  • Thank You: 97
  • Reputation: 20
  • Activity:
    7.6%
  • Country: in
  • Posts: 89
  • Topics: 81
  • Join Date: Feb 2018
  • ShareSpark Member
Fanney Khan (2018) Hindi 720p AMZN-DL H264 AAC DD2.0 ~Katyayan Exclusive



Source :- Nbt

General
Format                                   : MPEG-4
Format profile                           : Base Media
Codec ID                                 : isom (isom/iso2/avc1/mp41)
File size                                : 1.31 GiB
Duration                                 : 2 h 9 min
Overall bit rate                         : 1 455 kb/s
Writing application                      : Lavf58.12.100

Video
ID                                       : 1
Format                                   : AVC
Format/Info                              : Advanced Video Codec
Format profile                           : [email protected]
Format settings                          : CABAC / 4 Ref Frames
Format settings, CABAC                   : Yes
Format settings, ReFrames                : 4 frames
Codec ID                                 : avc1
Codec ID/Info                            : Advanced Video Coding
Duration                                 : 2 h 9 min
Bit rate                                 : 1 335 kb/s
Width                                    : 1 280 pixels
Height                                   : 544 pixels
Display aspect ratio                     : 2.35:1
Frame rate mode                          : Constant
Frame rate                               : 25.000 FPS
Color space                              : YUV
Chroma subsampling                       : 4:2:0
Bit depth                                : 8 bits
Scan type                                : Progressive
Bits/(Pixel*Frame)                       : 0.077
Stream size                              : 1.19 GiB (91%)
Writing library                          : x264 core 148 r2643 5c65704
Menus                                    : 3

Audio
ID                                       : 2
Format                                   : AAC
Format/Info                              : Advanced Audio Codec
Format profile                           : LC
Codec ID                                 : mp4a-40-2
Duration                                 : 2 h 9 min
Duration_LastFrame                       : -19 ms
Bit rate mode                            : Constant
Bit rate                                 : 128 kb/s
Channel(s)                               : 2 channels
Channel(s)_Original                      : 1 channel
Channel positions                        : Front: C
Sampling rate                            : 44.1 kHz
Frame rate                               : 43.066 FPS (1024 SPF)
Compression mode                         : Lossy
Stream size                              : 118 MiB (9%)
Title                                    : Hindi
Language                                 : Hindi
Default                                  : Yes
Alternate group                          : 1
Menus                                    : 3

Menu #1
ID                                       : 3
Codec ID                                 : text
Duration                                 : 2 h 9 min
Language                                 : English
Menu For                                 : 1,2
00:00:00.000                             : Thank you Credits, Studio Logos
00:02:18.000                             : Scene 2
00:10:37.000                             : Scene 3
00:19:37.000                             : Scene 4
00:33:22.000                             : Scene 5
00:41:42.000                             : Scene 6
00:57:10.000                             : Scene 7
01:05:46.000                             : Scene 8
01:18:05.000                             : Scene 9
01:29:21.000                             : Scene 10
01:39:10.000                             : Scene 11
01:47:19.000                             : Scene 12
01:57:27.000                             : Scene 13
02:05:23.000                             : End Credits
Bit rate mode                            : VBR

Menu #2
00:00:00.000                             : Thank you Credits, Studio Logos
00:02:18.000                             : Scene 2
00:10:37.000                             : Scene 3
00:19:37.000                             : Scene 4
00:33:22.000                             : Scene 5
00:41:42.000                             : Scene 6
00:57:10.000                             : Scene 7
01:05:46.000                             : Scene 8
01:18:05.000                             : Scene 9
01:29:21.000                             : Scene 10
01:39:10.000                             : Scene 11
01:47:19.000                             : Scene 12
01:57:27.000                             : Scene 13
02:05:23.000                             : End Credits








Share this topic on FacebookShare this topic on GoogleShare this topic on MySpaceShare this topic on TwitterShare this topic on Yahoo



Thanks given by:


October 14, 2018, 01:06:00 PM
Reply #1
  • Devoted Member
  • **
  • Thank You: 0
  • Reputation: 6
  • Activity:
    19.4%
  • Country: in
  • Posts: 111
  • Topics: 0
  • Join Date: Oct 2016
  • ShareSpark Member

Tags:
 

Related Topics

  Subject / Started by Replies Last post
1 Replies
734 Views
Last post July 16, 2018, 11:12:16 AM
by JackRoSe
0 Replies
624 Views
Last post August 06, 2018, 01:08:18 PM
by RoBi007
4 Replies
631 Views
Last post October 12, 2018, 10:07:51 PM
by Pankaj Kumar Gupta
0 Replies
61 Views
Last post October 16, 2018, 05:23:26 PM
by RoBi007
0 Replies
179 Views
Last post October 17, 2018, 03:03:47 PM
by shahzaibjaan




Back to top