warez-bb | ☑ Fiche du Jeu | Die Abenteuer des jungen Indiana Jones

+ wearforest.com »  :::: Bollywood Zone » Regional Movies » Regional Movies in Hindi
|- Sirfirein Looterey (2018 - South Hindi Dubbed) - 2CD - DTHRip[x264 - AC3(5.1Ch)]


Electroncs Sale

Sirfirein Looterey (2018 - South Hindi Dubbed) - 2CD - DTHRip[x264 - AC3(5.1Ch)]

0 Members and 1 Guest are viewing this topic.

October 12, 2018, 11:08:29 AM
  • Semi Newbie
  • **
  • Topic Author
  • Thank You: 0
  • Reputation: -1
  • Activity:
    5.4%
  • Country: bd
  • Posts: 27
  • Topics: 27
  • Join Date: Oct 2018
  • ShareSpark Member
      Sirfirein Looterey (2018 - South Hindi Dubbed) -
 2CD - DTHRip[x264 - AC3(5.1Ch)]     
 




Code: [Select]
General
Format                                   : Matroska
Format version                           : Version 4
File size                                : 1.40 GiB
Duration                                 : 2 h 19 min

Video
ID                                       : 1
Format                                   : AVC
Format/Info                              : Advanced Video Codec
Format profile                           : [email protected]
Format settings                          : CABAC / 4 Ref Frames
Format settings, CABAC                   : Yes
Format settings, RefFrames               : 4 frames
Codec ID                                 : V_MPEG4/ISO/AVC
Duration                                 : 2 h 19 min
Bit rate                                 : 1 248 kb/s
Width                                    : 720 pixels
Height                                   : 368 pixels
Display aspect ratio                     : 1.957
Frame rate mode                          : Constant
Frame rate                               : 25.000 FPS
Color space                              : YUV
Chroma subsampling                       : 4:2:0
Bit depth                                : 8 bits
Scan type                                : Progressive
Bits/(Pixel*Frame)                       : 0.188
Stream size                              : 1.21 GiB (87%)

Audio
ID                                       : 2
Format                                   : AC-3
Format/Info                              : Audio Coding 3
Commercial name                          : Dolby Digital
Codec ID                                 : A_AC3
Duration                                 : 2 h 19 min
Bit rate mode                            : Constant
Bit rate                                 : 192 kb/s
Channel(s)                               : 6 channels
Channel layout                           : L R C LFE Ls Rs
Sampling rate                            : 48.0 kHz
Stream size                              : 191 MiB (13%)
Language                                 : Hindi


  Thumbnail   







OR

OR

Share this topic on FacebookShare this topic on GoogleShare this topic on MySpaceShare this topic on TwitterShare this topic on Yahoo




Tags:
 

Related Topics





Back to top