+ wearforest.com »  :::: Bollywood Zone » Bollywood Movies (Original Rips) » High Resolution Movies
|- Fanney Khan (2018) - 1CD - HDRip [Mp4 - AAC3(5.1Ch)]


Electroncs Sale

Fanney Khan (2018) - 1CD - HDRip [Mp4 - AAC3(5.1Ch)]

0 Members and 1 Guest are viewing this topic.

October 12, 2018, 10:58:37 AM
  • Semi Newbie
  • **
  • Topic Author
  • Thank You: 0
  • Reputation: -1
  • Activity:
    7%
  • Country: bd
  • Posts: 35
  • Topics: 35
  • Join Date: Oct 2018
  • ShareSpark Member
      Fanney Khan (2018) - 1CD - HDRip
[Mp4 - AAC3(5.1Ch)]   
 







Code: [Select]
General
Format                                   : Matroska
Format version                           : Version 4
File size                                : 699 MiB
Duration                                 : 2 h 29 min

Video
ID                                       : 1
Format                                   : AVC
Format/Info                              : Advanced Video Codec
Format profile                           : [email protected]
Format settings                          : CABAC / 4 Ref Frames
Format settings, CABAC                   : Yes
Format settings, RefFrames               : 4 frames
Codec ID                                 : V_MPEG4/ISO/AVC
Duration                                 : 2 h 29 min
Bit rate                                 : 524 kb/s
Width                                    : 624 pixels
Height                                   : 272 pixels
Display aspect ratio                     : 2.25:1
Frame rate mode                          : Constant
Frame rate                               : 25.000 FPS
Color space                              : YUV
Chroma subsampling                       : 4:2:0
Bit depth                                : 8 bits
Scan type                                : Progressive
Bits/(Pixel*Frame)                       : 0.123
Stream size                              : 560 MiB (80%)

Audio
ID                                       : 2
Format                                   : AAC LC SBR
Commercial name                          : HE-AAC
Format settings                          : Explicit
Codec ID                                 : A_AAC-2
Duration                                 : 2 h 29 min
Bit rate                                 : 128 kb/s
Channel(s)                               : 6 channels
Channel layout                           : C L R Ls Rs LFE
Sampling rate                            : 48.0 kHz
Stream size                              : 137 MiB (20%)



  Thumbnail   







OR

OR

Share this topic on FacebookShare this topic on GoogleShare this topic on MySpaceShare this topic on TwitterShare this topic on Yahoo




Tags:
 

Related Topics

  Subject / Started by Replies Last post
1 Replies
927 Views
Last post August 04, 2018, 06:11:38 PM
by MatrixCode
0 Replies
486 Views
Last post August 06, 2018, 01:07:24 PM
by RoBi007
0 Replies
630 Views
Last post August 06, 2018, 01:08:18 PM
by RoBi007
0 Replies
172 Views
Last post October 12, 2018, 03:37:40 AM
by BUNGILI
0 Replies
127 Views
Last post October 12, 2018, 06:25:46 PM
by Special26




Back to top
SitemapHD Zoom (2015) | Chap 646 | Glass no le