Bonobono (2016) | Coldplay, Ed Sheeran, Beyonce, Pearl Jam at the Global Citizen Festival. | 5. Venom

+ wearforest.com »  :::: Bollywood Zone » Bollywood Movies (Original Rips)
|- Mulk (2018) 720p WEB-RIP x264 AC3 2.0 ~ Ranvijay


Mastercard 10% Off

Mulk (2018) 720p WEB-RIP x264 AC3 2.0 ~ Ranvijay

0 Members and 1 Guest are viewing this topic.

October 09, 2018, 12:50:26 PM
  • Global Moderator
  • Legend Member
  • *****
  • Topic Author
  • Thank You: 10080
  • Reputation: 2081
  • Activity:
    100%
  • Country: in
  • Posts: 5236
  • Topics: 4321
  • Join Date: Jan 2014
  • ıllıllı ѕмoĸιng ιѕ good ғor нealтн ıllıllı :)




Mulk (2018) 720p WEB-RIP x264 AC3 2.0 ~ Ranvijay

Source :- DTOne

Buy RDP Online




Quote
General
Format                                   : Matroska
Format version                           : Version 4 / Version 2
File size                                : 1.49 GiB
Duration                                 : 2 h 14 min
Overall bit rate                         : 1 580 kb/s
Movie name                               : Mulk (2018) 720p WEB-RIP x264 AC3 2.0 ~ Ranvijay

Video
ID                                       : 1
Format                                   : AVC
Format/Info                              : Advanced Video Codec
Duration                                 : 2 h 14 min
Bit rate                                 : 1 500 kb/s
Width                                    : 1 280 pixels
Height                                   : 544 pixels
Display aspect ratio                     : 2.35:1
Frame rate mode                          : Constant
Frame rate                               : 25.000 FPS
Color space                              : YUV
Chroma subsampling                       : 4:2:0
Bit depth                                : 8 bits
Scan type                                : Progressive
Bits/(Pixel*Frame)                       : 0.086
Stream size                              : 1.42 GiB (96%)
Title                                    : ~Ranvijay~

Audio
ID                                       : 2
Format                                   : AC-3
Format/Info                              : Audio Coding 3
Codec ID                                 : A_AC3
Duration                                 : 2 h 14 min
Bit rate mode                            : Constant
Bit rate                                 : 64.0 kb/s
Channel(s)                               : 2 channels
Channel positions                        : Front: L R
Sampling rate                            : 48.0 kHz
Frame rate                               : 31.250 FPS (1536 SPF)
Bit depth                                : 16 bits
Compression mode                         : Lossy
Delay relative to video                  : -80 ms
Stream size                              : 61.6 MiB (4%)
Title                                    : ~Ranvijay~
Language                                 : Hindi
Service kind                             : Complete Main
Default                                  : Yes
Forced                                   : Yes














:download:

Quote



File Leeched & Uploaded From




Don't walk as you are king, walk as you don't care who the king is....!!
Never argue with an idiot. They drag you down to their level and then beat you with experience?

Share this topic on FacebookShare this topic on GoogleShare this topic on MySpaceShare this topic on TwitterShare this topic on Yahoo

« Last Edit: October 09, 2018, 12:50:49 PM by Rάήνίјάч1234 »



Don't walk as you are king, walk as you don't care who the king is....!!

Thanks given by:


October 14, 2018, 08:38:44 AM
Reply #1
  • Elite Forces
  • ****
  • Thank You: 117
  • Reputation: 78
  • Activity:
    4.2%
  • Country: pk
  • Posts: 1150
  • Topics: 325
  • Join Date: Sep 2012
  • ShareSpark Member

Tags:
 

Related Topics

  Subject / Started by Replies Last post
0 Replies
582 Views
Last post August 06, 2018, 12:47:36 PM
by RoBi007
1 Replies
806 Views
Last post October 02, 2018, 12:18:56 PM
by unirockers
1 Replies
267 Views
Last post October 02, 2018, 12:40:51 PM
by Rabasha
0 Replies
278 Views
Last post October 02, 2018, 05:54:23 PM
by shahzaibjaan
0 Replies
355 Views
Last post October 02, 2018, 07:00:05 PM
by Special26




Back to top
Sitemap