[request_ebook] Data Communications and Networking, 4th edition | Escape from the ... (1983) | Download APK

+ wearforest.com »  :::: Bollywood Zone » Bollywood Movies (Original Rips)
|-  Tikli and Laxmi Bomb (2017) Hindi 720p NF Web-DL AVC AAC DD 2.0 Esub Team Crazy Exclusive


Mastercard 10% Off

Tikli and Laxmi Bomb (2017) Hindi 720p NF Web-DL AVC AAC DD 2.0 Esub Team Crazy Exclusive

0 Members and 1 Guest are viewing this topic.

August 02, 2018, 10:52:24 AM
  • Begginer
  • **
  • Topic Author
  • Thank You: 97
  • Reputation: 20
  • Activity:
    7.4%
  • Country: in
  • Posts: 89
  • Topics: 81
  • Join Date: Feb 2018
  • ShareSpark Member
Tikli and Laxmi Bomb (2017) Hindi 720p NF Web-DL AVC AAC DD 2.0 Esub Team Crazy Exclusive



Format                                   : MPEG-4

Format profile                           : Base Media

Codec ID                                 : isom (isom/iso2/avc1/mp41)

File size                                : 1.17 GiB

Duration                                 : 2 h 30 min

Overall bit rate                         : 1 108 kb/s

Writing application                      : Lavf58.12.100


Video

ID                                       : 1

Format                                   : AVC

Format/Info                              : Advanced Video Codec

Format profile                           : [email protected]

Format settings                          : CABAC / 3 Ref Frames

Format settings, CABAC                   : Yes

Format settings, ReFrames                : 3 frames

Codec ID                                 : avc1

Codec ID/Info                            : Advanced Video Coding

Duration                                 : 2 h 30 min

Bit rate                                 : 1 036 kb/s

Width                                    : 1 274 pixels

Height                                   : 720 pixels

Display aspect ratio                     : 16:9

Frame rate mode                          : Constant

Frame rate                               : 25 FPS

Color space                              : YUV

Chroma subsampling                       : 4:2:0

Bit depth                                : 8 bits

Scan type                                : Progressive

Bits/(Pixel*Frame)                       : 0.066

Stream size                              : 3.45 GiB (97%)


Audio

ID                                       : 2

Format                                   : AAC

Format/Info                              : Advanced Audio Codec

Format profile                           : HE-AAC / LC

Format settings                          : Explicit

Codec ID                                 : mp4a-40-2

Duration                                 : 2 h 30 min

Bit rate mode                            : Constant

Bit rate                                 : 64.0 kb/s

Channel(s)                               : 2 channels

Channel positions                        : Front: L R

Sampling rate                            : 48.0 kHz / 24.0 kHz

Frame rate                               : 23.438 FPS (1024 SPF)

Compression mode                         : Lossy

Stream size                              : 102 MiB (3%)

Default                                  : Yes

Alternate group                          : 1



Esub



Movie



Share this topic on FacebookShare this topic on GoogleShare this topic on MySpaceShare this topic on TwitterShare this topic on Yahoo

« Last Edit: August 02, 2018, 11:07:16 AM by Katyayan »


Thanks given by:


October 14, 2018, 01:11:13 PM
Reply #1
  • Devoted Member
  • **
  • Thank You: 0
  • Reputation: 6
  • Activity:
    19.4%
  • Country: in
  • Posts: 111
  • Topics: 0
  • Join Date: Oct 2016
  • ShareSpark Member

Tags:
 

Related Topics





Back to top
Sitemap