+ wearforest.com »  :::: Hollywood Zone » Anime & Cartoon Zone
|- DuckTales.2017.S01E07.720p.WEB.x264


Samsung Galaxy 8

DuckTales.2017.S01E07.720p.WEB.x264

0 Members and 1 Guest are viewing this topic.

October 23, 2017, 01:30:54 PM
  • Elite Member
  • ***
  • Topic Author
  • Thank You: 122
  • Reputation: 22
  • Activity:
    0%
  • Country: in
  • Posts: 482
  • Topics: 457
  • Join Date: Nov 2013
  • ShareSpark Member



:ss:




Video
ID                                       : 1
Format                                   : AVC
Format/Info                              : Advanced Video Codec
Format profile                           : [email protected]
Format settings, CABAC                   : Yes
Format settings, ReFrames                : 2 frames
Codec ID                                 : V_MPEG4/ISO/AVC
Duration                                 : 22mn 33s
Bit rate                                 : 3 360 Kbps
Width                                    : 1 280 pixels
Height                                   : 720 pixels
Display aspect ratio                     : 16:9
Frame rate mode                          : Constant
Frame rate                               : 23.976 (23976/1000) fps
Original frame rate                      : 24.000 fps
Color space                              : YUV
Chroma subsampling                       : 4:2:0
Bit depth                                : 8 bits
Scan type                                : Progressive
Bits/(Pixel*Frame)                       : 0.152
Stream size                              : 529 MiB (96%)
Writing library                          : x264 core 148 r2579M 73ae2d1
Encoding settings                        : cabac=1 / ref=2 / deblock=1:0:0 / analyse=0x3:0x113 / me=hex / subme=2 / psy=1 / psy_rd=1.00:0.00 / mixed_ref=0 / me_range=16 / chroma_me=1 / trellis=0 / 8x8dct=1 / cqm=0 / deadzone=21,11 / fast_pskip=1 / chroma_qp_offset=0 / threads=4 / lookahead_threads=1 / sliced_threads=0 / nr=250 / decimate=1 / interlaced=0 / bluray_compat=0 / stitchable=1 / constrained_intra=0 / bframes=0 / weightp=1 / keyint=250 / keyint_min=24 / scenecut=40 / intra_refresh=0 / rc_lookahead=10 / rc=2pass / mbtree=1 / bitrate=3360 / ratetol=1.0 / qcomp=0.60 / qpmin=5 / qpmax=69 / qpstep=4 / cplxblur=20.0 / qblur=0.5 / ip_ratio=1.40 / aq=1:1.00
Default                                  : Yes
Forced                                   : No

Audio
ID                                       : 2
Format                                   : AAC
Format/Info                              : Advanced Audio Codec
Format profile                           : HE-AAC / LC
Codec ID                                 : A_AAC
Duration                                 : 22mn 33s
Bit rate                                 : 127 Kbps
Channel(s)                               : 2 channels
Channel positions                        : Front: L R
Sampling rate                            : 48.0 KHz / 24.0 KHz
Frame rate                               : 23.438 fps (1024 spf)
Compression mode                         : Lossy
Delay relative to video                  : -41ms
Stream size                              : 20.5 MiB (4%)
Default                                  : Yes
Forced                                   : No

:download:





Share this topic on FacebookShare this topic on GoogleShare this topic on MySpaceShare this topic on TwitterShare this topic on Yahoo




Tags:
 

Related Topics

  Subject / Started by Replies Last post
0 Replies
672 Views
Last post September 26, 2017, 05:04:03 PM
by jamez.bond.3304
0 Replies
757 Views
Last post September 26, 2017, 05:06:58 PM
by jamez.bond.3304
0 Replies
659 Views
Last post October 08, 2017, 11:47:10 AM
by jamez.bond.3304
0 Replies
866 Views
Last post October 15, 2017, 07:46:45 PM
by jamez.bond.3304
0 Replies
916 Views
Last post October 29, 2017, 06:53:04 PM
by jamez.bond.3304




Back to top
Sitemap[ Zobacz cały opis... ] | Raymond Burr | comments (13)